World War Z 2013 CAM XViD – JUSTiCE

17948592a82ef1d8b2f4814063000df97d05ce06 World War Z 2013 CAM XViD   JUSTiCE

World War Z (2013)
Rating: 7.3/10 (47,006 voted)
Runtime: 116 min
Languages: English
Genre: Action / Drama / Horror / Thriller
Director: Marc Forster
Writer: Matthew Michael Carnahan / Drew Goddard
Stars: Brad Pitt / Mireille Enos / Daniella Kertesz / James Badge Dale / Ludi Boeken / Matthew Fox / Fana Mokoena / David Morse / Elyes Gabel / Peter Capaldi / Pierfrancesco Favino / Ruth Negga / Moritz Bleibtreu / Sterling Jerins / Abigail Hargrove
IMDB Link: http://www.imdb.com/title/tt0816711/

Storyline: United Nations employee Gerry Lane traverses the world in a race against time to stop the Zombie pandemic that is toppling armies and governments, and threatening to destroy humanity itself.

VIDEO INFORMATION

File: World War Z 2013 CAM XViD – JUSTiCE.avi
Size: 1481641784 bytes (1.38 GiB), duration: 01:48:41, avg.bitrate: 1818 kb/s
Audio: mp3, 48000 Hz, stereo, 128 kb/s
Video: mpeg4, yuv420p, 720×288, 24.00 fps(r)

SCREENSHOT

4gl0XGK World War Z 2013 CAM XViD   JUSTiCE

INFORMATION

World War Z 2013 CAM XViD – JUSTiCE
SOURCE : THC
Video and audio both cleaned and given justice.
Check sample and see…..
Ok first nice work THC …
IMHO there is some little tweaks needed to be done …so thats what i’ve
done.Changed the contrast,brightness,rgb colours,aswell as used a smoother to remove
the video noise,also changed the intes to lower the glare,before adding some sharpness back
to it.
Audio was ok cam audio,but was way to over powering and also quite tinny ( normal for cam ).
Audio just stripped,dropped in adobe and remastered it,changing the eq bands and used a light noise
filter….then resaved,and remuxed to our rip.
Video
ID : 0
Format : MPEG-4 Visual
Format profile : Advanced Simple@L5
Format settings, BVOP : 2
Format settings, QPel : No
Format settings, GMC : No warppoints
Format settings, Matrix : Default (MPEG)
Muxing mode : Packed bitstream
Codec ID : XVID
Codec ID/Hint : XviD
Duration : 1h 48mn
Bit rate : 1 680 Kbps
Width : 720 pixels
Height : 288 pixels
Display aspect ratio : 2.500
Frame rate : 24.000 fps
Color space : YUV
Chroma subsampling : 4:2:0
Bit depth : 8 bits
Scan type : Progressive
Compression mode : Lossy
Bits/(Pixel*Frame) : 0.338
Stream size : 1.28 GiB (92%)
Writing library : XviD 64
Audio
ID : 1
Format : MPEG Audio
Format version : Version 1
Format profile : Layer 3
Mode : Joint stereo
Mode extension : MS Stereo
Codec ID : 55
Codec ID/Hint : MP3
Duration : 1h 48mn
Bit rate mode : Constant
Bit rate : 128 Kbps
Channel(s) : 2 channels
Sampling rate : 48.0 KHz
Compression mode : Lossy
Delay relative to video : 20ms
Stream size : 99.5 MiB (7%)
Alignment : Split accross interleaves
Interleave, duration : 42 ms (1.00 video frame)
Interleave, preload duration : 500 ms
RIGV9GTW World War Z 2013 CAM XViD   JUSTiCE
V6pKN World War Z 2013 CAM XViD   JUSTiCE
oMPi86a3 World War Z 2013 CAM XViD   JUSTiCE
qZDx8i3 World War Z 2013 CAM XViD   JUSTiCE
f4fn7Ib6 World War Z 2013 CAM XViD   JUSTiCE
hEpViY6x World War Z 2013 CAM XViD   JUSTiCE

DOWNLOAD

Rapidgator:

http://rapidgator.net/file/5d14f101df7603446d285f21d63131dd/World_War_Z_2013_CAM_XViD_JUSTiCE.part1.rar.html
http://rapidgator.net/file/6d22461138d0f49587e55a1f519de1eb/World_War_Z_2013_CAM_XViD_JUSTiCE.part2.rar.html

Secureupload:

http://www.secureupload.eu/542uwshgeouj/World_War_Z_2013_CAM_XViD_JUSTiCE.part1.rar
http://www.secureupload.eu/w66lijsdk1rd/World_War_Z_2013_CAM_XViD_JUSTiCE.part2.rar

dizzcloudcom:

http://dizzcloud.com/dl/163va7e
http://dizzcloud.com/dl/163va7c